Sejengkal Tanah - Mansyur S - New Pallapa

[postlink]http://video-harapanputra.blogspot.com/2012/09/sejengkal-tanah-mansyur-new-pallapa.html[/postlink]http://www.youtube.com/watch?v=o1GLIFae90Mendofvid [starttext]

VIDEO HARAPAN PUTRA Dangdut Koplo Monata Sera Pallapa RGS Sonata | Free Watch Video Youtube

++++++++++++++++++++++++++++++++++++++++++++++++++++++
NEW UPDATE
++++++++++++++++++++++++++++++++++++++++++++++++++++++

1. Rindu Merana - Via Vallen - SERA
2. Secawan Madu - Devi Aldiva - New Pallapa
3. New Pallapa Best of Evie Tamala

Monata | Sera | Pallapa | RGS | Lusiana Safara | Anjar Agustin | Lusi Susanti | Ratna Antika | Sintia Dewi | Novi Andarista | Brodin | Dian Marshanda | Harapan putra | Lilin Herlina | Dwi Ratna | Devi Al Diva | Rena KDI
General Complete name : Sejengkal Tanah - Voc. Mansyur S - OM. New Pallapa 2012.mpg Format : MPEG-PS File size : 57.4 MiB Duration : 5mn 45s Overall bit rate : 1 394 Kbps Video ID : 224 (0xE0) Format : MPEG Video Format version : Version 1 Format settings, BVOP : Yes Format settings, Matrix : Custom Duration : 5mn 45s Bit rate : 1 150 Kbps Width : 352 pixels Height : 288 pixels Display aspect ratio : 4:3 Frame rate : 25.000 fps Standard : PAL Color space : YUV Bit depth : 8 bits Scan type : Progressive Compression mode : Lossy Bits/(Pixel*Frame) : 0.454 Stream size : 47.0 MiB (82%) Audio ID : 192 (0xC0) Format : MPEG Audio Format version : Version 1 Format profile : Layer 2 Duration : 5mn 45s Bit rate mode : Constant Bit rate : 224 Kbps Channel(s) : 2 channels Sampling rate : 44.1 KHz Compression mode : Lossy Stream size : 9.22 MiB (16%) [endtext]


Untuk Memperoleh Backlink Dari Blog Ini, Silahkan Berikan Komentar Anda Terhadap Posting Diatas
Blog Ini Telah Disetting Menjadi Dofollow

Video Terkait:

0 comments:

Post a Comment